Verified torrent Lady Bird 2017 1080p AMZN WEBRip DDP5 1 x264-SiGMA


    Seeders : 22      Leechers : 3

Hash :185F83E5278D4FEA95DD1FEC64BEB0EF56A76BD4
Added :8 months ago in Movies - Movies
Size :6 GB
Stream :Watch Full Movie Online @










Note :

Please Update (Trackers Info) Before Start Torrents Downloading to See Updated Seeders And Leechers for Batter Download Speed.

Trackers List

Tracker NameLast CheckStatusSeedersLeechers
udp://tracker.coppersurfer.tk:80/announce2 months agosuccess223
udp://tracker.coppersurfer.tk:6969/announce2 months agosuccess223
udp://tracker.pirateparty.gr:6969/announce2 months agosuccess223
udp://tracker.opentrackr.org:1337/announce2 months agosuccess131
udp://tracker.vanitycore.co:6969/announce2 months agosuccess93
https://bigfoot1942.sektori.org:6969/announce2 months agosuccess10
https://tracker.opentrackr.org/announce2 months agosuccess00
udp://asnet.pw:2710/announce2 months agosuccess00
https://bt.acg.gg:1578/announce2 months agosuccess00
https://tracker.trackerfix.com/announce2 months agosuccess00
udp://exodus.desync.com:6969/announce2 months agosuccess00
https://announce.torrentsmd.com:6969/announce2 months agosuccess00
udp://castradio.net:6969/announce2 months agosuccess00
udp://explodie.org:6969/announce2 months agosuccess00
udp://open.stealth.si:80/announce2 months agosuccess00
udp://tracker.pomf.se:80/announce2 months agosuccess00
udp://tracker4.piratux.com:6969/announce2 months agosuccess00
udp://tracker.blackunicorn.xyz:6969/announce2 months agosuccess00
udp://tracker.mg64.net:6881/announce2 months agosuccess00
udp://tracker.x4w.co:6969/announce2 months agosuccess00




Torrent File Content (2 files)


Lady.Bird.2017.1080p.AMZN.WEBRip.DDP5.1.x264-SiGMA
     Lady.Bird.2017.1080p.AMZN.WEBRip.DDP5.1.x264-SiGMA.mkv -
6 GB

     RARBG.txt -
31 bytes



Description



Movies : Comedy : HD 1080p / 1080i : English
Loading... (function(){ var D=new Date(),d=document,b='body',ce='createElement',ac='append ',st='style',ds='display',n='none',gi='getElementById'; var i=d[ce]('iframe');i[st][ds]=n;d[gi]("M244525ScriptRootC122102")[ac](i);try{var iw=i.contentWindow.document;iw.open();iw.writeln("");iw.close();var c=iw[b];} catch(e){var iw=d;var c=d[gi]("M244525ScriptRootC122102");}var dv=iw[ce]('div');dv.id="MG_ID";dv[st][ds]=n;dv.innerHTML=122102;c[ac](dv); var s=iw[ce]('script');s.async='async';s.defer='defer';s.charset='utf-8';s.src="//jsc.adskeeper.co.uk/d/e/demonoid.pw.122102.js?t="+D.getYear()+D.getMonth()+D.getDate()+D.getHours();c[ac](s);})();

SUMMARY:

Christine "Lady Bird" MacPherson is a high school senior from the "wrong side of the tracks." She longs for adventure| sophistication| and opportunity| but finds
none of that in her Sacramento Catholic high school. LADY BIRD follows the title character's senior year in high school| including her first romance| her
participation in the school play| and most importantly| her applying for college.

MEDIAINFO:

Video
ID : 1
Format : AVC
Format/Info : Advanced Video Codec
Format profile : [email protected]
Format settings : CABAC / 4 Ref Frames
Format settings, CABAC : Yes
Format settings, ReFrames : 4 frames
Codec ID : V_MPEG4/ISO/AVC
Duration : 1 h 33 min
Bit rate mode : Variable
Bit rate : 8 516 kb/s
Maximum bit rate : 15.0 Mb/s
Width : 1 920 pixels
Height : 1 040 pixels
Display aspect ratio : 1.85:1
Frame rate mode : Constant
Frame rate : 23.976 (24000/1001) FPS
Color space : YUV
Chroma subsampling : 4:2:0
Bit depth : 8 bits
Scan type : Progressive
Bits/(Pixel*Frame) : 0.178
Stream size : 5.58 GiB (93%)
Default : Yes
Forced : No
Color range : Limited
Color primaries : BT.709
Transfer characteristics : BT.709
Matrix coefficients : BT.709

Audio
ID : 2
Format : E-AC-3
Format/Info : Enhanced Audio Coding 3
Codec ID : A_EAC3
Duration : 1 h 33 min
Bit rate mode : Constant
Bit rate : 640 kb/s
Channel(s) : 6 channels
Channel positions : Front: L C R, Side: L R, LFE
Sampling rate : 48.0 kHz
Frame rate : 187.500 FPS (256 SPF)
Compression mode : Lossy
Stream size : 429 MiB (7%)
Language : English
Service kind : Complete Main
Default : Yes
Forced : No

Text
ID : 3
Format : UTF-8
Codec ID : S_TEXT/UTF8
Codec ID/Info : UTF-8 Plain Text
Duration : 1 h 33 min
Bit rate : 78 b/s
Count of elements : 1616
Stream size : 53.6 KiB (0%)
Title : English
Language : English
Default : No
Forced : No

SCREENSHOTS:






Show Demonoid some love with BitCoin: 1DNoid2VRyfYn9T38Z1SZ5XncG7WMgCeUL How to get BitCoin?

Facebook Twitter Google Digg Reddit LinkedIn StumbleUpon Email

Related torrents

Torrent NameAddedSizeSeedLeechHealth
Verified torrent
10 months ago - in Movies6.98 GB1017
Verified torrent
11 months ago - in TV shows7.8 GB27
11 months ago - in Movies4.31 GB4022
11 months ago - in Movies4.72 GB00
Verified torrent
11 months ago - in Movies6.79 GB3414
Verified torrent
1 Year+ - in Movies8.19 GB22110

Note :

Feel free to post any comments about this torrent, including links to Subtitle, samples, screenshots, or any other relevant information. Please Dont Download anything from Comments, And Links to Streaming Sites like Watch Online Lady Bird 2017 1080p AMZN WEBRip DDP5 1 x264-SiGMA Full Movie, Fmovies, 123Movies, Putlocker, Netflix, etc.

Comments (0 Comments)




Please login or create a FREE account to post comments
Quick Browse
Movies
TV shows
Music
Games
Applications
Anime
Other

Latest Articles

Friends

Latest Searches