Verified torrent The Little Mermaid - La sirenetta (2018).720p.H264.italian.english.Ac3-5.1-MIRCrew


    Seeders : 332      Leechers : 184

Before you download or do Anything online: PLEASE Protect your Online Privacy.
Your Internet Service Provider and Government can track your torrent Activity!  Hide your IP ADDRESS with a VPN!

Note :

Please Update (Trackers Info) Before Start Torrents Downloading to See Updated Seeders And Leechers for Batter Download Speed.

Trackers List

Tracker NameLast CheckStatusSeedersLeechers
udp://tracker.coppersurfer.tk:80/announce9 days agosuccess332184
udp://tracker.pirateparty.gr:6969/announce9 days agosuccess332184
udp://tracker.opentrackr.org:1337/announce9 days agosuccess8971
udp://open.stealth.si:80/announce9 days agosuccess217
udp://tracker.port443.xyz:6969/announce9 days agosuccess198
udp://thetracker.org:80/announce9 days agosuccess1610
udp://tracker.internetwarriors.net:1337/announce9 days agosuccess167
udp://bt. -tracker.com:2710/announce9 days agosuccess154
https://tracker3.itzmx.com:8080/announce9 days agosuccess1316
udp://tracker.vanitycore.co:6969/announce9 days agosuccess98
udp://ipv4.tracker.harry.lu:80/announce9 days agosuccess85
udp://tracker.torrent.eu.org:451/announce9 days agosuccess10
udp://tracker.torrent.eu.org:4519 days agosuccess10
https://151.80.120.114:2710/announce10 days agosuccess00
https://9.rarbg.to:2730/announce10 days agosuccess00
https://tracker.pirateparty.gr:6969/announce10 days agosuccess00
https://tracker.torrent.eu.org:451/announce10 days agosuccess00
https://9.rarbg.me:2780/announce10 days agosuccess00
https://inferno.demonoid.pw:3391/announce10 days agosuccess00
udp://tracker.cyberia.is:6969/announce9 days agosuccess00
https://tracker.openbittorrent.com/announce10 days agosuccess00
https://tracker.publicbt.com/announce10 days agosuccess00
udp://exodus.desync.com:6969/announce9 days agosuccess00
https://tracker.leechers-paradise.org:6969/announce10 days agosuccess00
https://tracker.coppersurfer.tk:6969/announce10 days agosuccess00
https://9.rarbg.com:2710/announce10 days agosuccess00
https://eddie4.nl:6969/announce10 days agosuccess00
https://shadowshq.yi.org:6969/announce10 days agosuccess00
https://shadowshq.eddie4.nl:6969/announce10 days agosuccess00
https://tracker.eddie4.nl:6969/announce10 days agosuccess00
https://share.camoe.cn:8080/announce9 days agosuccess00
udp://tracker.justseed.it:1337/announce9 days agosuccess00
https://tracker.opentrackr.org:1337/announce10 days agosuccess00
https://62.138.0.158:6969/announce10 days agosuccess00



Torrent File Content (2 files)


The Little Mermaid - La sirenetta (2018).720p.h264.ita.eng-MIRCrew
     BY MIRCrew.txt -
65 bytes

     The Little Mermaid - La sirenetta (2018).720p.h264.ita.eng-MIRCrew.mkv -
1.61 GB



Description



The Little Mermaid - La sirenetta (2018).720p.H264.italian.english.Ac3-5.1-MIRCrew

https://extraimage.net/images/2018/06/28/629d876c7be492a522e9b54e228535f9.jpg

NO FOUND ONLY ORIGINAL RELEASE



My release is always in double track audio italian and Original audio
for select it use VLC or dvd player home
not use wmp

The Little Mermaid - La sirenetta (2018)

Quality MIRCrew on HD 720p da 1,6 gb

[url=https://extraimage.net/image/cE1d]
https://extraimage.net/images/2018/12/08/836d44e13434431b37300c32901ad43f.png
[/url]

[URL=https://www.imdb.com/title/tt5493944/]
https://www.userlogos.org/files/logos/Sucka/imdb_new.png
[/URL]

https://s19.postimg.cc/bgh0za7kj/banner_scheda.gif


Titolo originale: The Little Mermaid
Regia: Blake Harris, Chris Bouchard
Paese: USA
Anno: 2018
Genere: Fantasy
Durata: 90 m.

https://s19.postimg.cc/dwnfqvf0z/banner_cast.gif


William Moseley, Poppy Drayton, Shirley MacLaine, Armando Gutierrez, Loreto Peralta


https://s19.postimg.cc/i9hdvjydv/banner_trama.gif


Una nonna racconta alle due nipoti la storia della Sirenetta. Nonostante la giovanissima età, le due non credono alla storia e la nonna decide di raccontarne una altra, molti anni prima, un giovane reporter di nome Cam Harrison non riusciva a guadagnarsi da vivere quando con la sorella minore Elle ha incontrato in un circo una bellissima

https://s19.postimg.cc/nwdqt10wj/banner_storyline.gif


A young reporter and his niece discover a beautiful and enchanting creature they believe to be the real little mermaid.

[url=https://extraimage.net/image/cE1m]
https://extraimage.net/images/2018/12/08/f7a7c87b44b50bf319773944904242d2.png
[/url]
[url=https://extraimage.net/image/cE1i]
https://extraimage.net/images/2018/12/08/2417ebc6902b5c66a822377a6256c4cb.png
[/url]
[url=https://extraimage.net/image/cE1l]
https://extraimage.net/images/2018/12/08/328b938c397e15e60af558c07450318b.png
[/url]
[url=https://extraimage.net/image/cE1I]
https://extraimage.net/images/2018/12/08/949b2b889cfe0acc16ea1b6f7c738e4c.png
[/url]


https://s19.postimg.cc/f07k2tzo3/banner_dati_file.gif


General
Unique ID : 251557720485464394354065594021412948463 (0xBD4041318F59C18E9796AEBDAC3D49EF)
Complete name : The Little Mermaid - La sirenetta (2018).720p.h264.ita.eng-MIRCrew\The Little Mermaid - La sirenetta (2018).720p.h264.ita.eng-MIRCrew.mkv
Format : Matroska
Format version : Version 2
File size : 1.61 GiB
Duration : 1h 25mn
Overall bit rate : 2 708 Kbps
Movie name : MIRCrew
Encoded date : UTC 2018-12-01 19:38:40
Writing application : mkvmerge v5.4.0 ('Piper') built on Mar 10 2012 13:34:39
Writing library : Lavf54.63.100
COMMENT : mircrew-releases

Video
ID : 1
Format : AVC
Format/Info : Advanced Video Codec
Format profile : [email protected]
Format settings, CABAC : Yes
Format settings, ReFrames : 2 frames
Codec ID : V_MPEG4/ISO/AVC
Duration : 1h 25mn
Bit rate : 1 900 Kbps
Width : 1 264 pixels
Height : 528 pixels
Display aspect ratio : 2.40:1
Frame rate mode : Variable
Frame rate : 23.976 fps
Color space : YUV
Chroma subsampling : 4:2:0
Bit depth : 8 bits
Scan type : Progressive
Bits/(Pixel*Frame) : 0.119
Stream size : 1.09 GiB (67%)
Title : MIRCrew
Writing library : x264 core 130 r2273
Encoding settings : cabac=1 / ref=2 / deblock=1:0:0 / yse=0x1:0x131 / me=hex / subme=7 / psy=1 / psy_rd=1.00:0.00 / mixed_ref=0 / me_range=16 / chroma_me=1 / trellis=1 / 8x8dct=0 / cqm=0 / deadzone=21,11 / fast_pskip=1 / chroma_qp_offset=-2 / threads=6 / lookahead_threads=1 / sliced_threads=0 / nr=0 / decimate=1 / interlaced=0 / bluray_compat=0 / constrained_intra=0 / bframes=3 / b_pyramid=0 / b_adapt=1 / b_bias=0 / direct=3 / weightb=1 / open_gop=0 / weightp=2 / keyint=230 / keyint_min=23 / scenecut=40 / intra_refresh=0 / rc_lookahead=40 / rc=abr / mbtree=1 / bitrate=1900 / ratetol=1.0 / qcomp=0.60 / qpmin=10 / qpmax=69 / qpstep=4 / vbv_maxrate=24000 / vbv_bufsize=24000 / nal_hrd=none / ip_ratio=1.40 / aq=1:1.00
Language : Italian
Default : Yes
Forced : No
DURATION : 01:25:18.447000000
NUMBER_OF_FRAMES : 122720
NUMBER_OF_BYTES : 1576394946
_STATISTICS_WRITING_APP : mkvmerge v9.8.0 ('Kuglblids') 32bit
_STATISTICS_WRITING_DATE_UTC : 2018-12-01 19:38:40
_STATISTICS_TAGS : BPS DURATION NUMBER_OF_FRAMES NUMBER_OF_BYTES

Audio #1
ID : 2
Format : AC-3
Format/Info : Audio Coding 3
Mode extension : CM (complete main)
Codec ID : A_AC3
Duration : 1h 25mn
Bit rate mode : Constant
Bit rate : 448 Kbps
Channel(s) : 6 channels
Channel positions : Front: L C R, Side: L R, LFE
Sampling rate : 48.0 KHz
Bit depth : 16 bits
Compression mode : Lossy
Delay relative to video : -5ms
Stream size : 273 MiB (17%)
Title : Ita Ac3 5.1
Default : Yes
Forced : No
DURATION : 01:25:18.464000000
NUMBER_OF_FRAMES : 159952
NUMBER_OF_BYTES : 286633984
_STATISTICS_WRITING_APP : mkvmerge v9.8.0 ('Kuglblids') 32bit
_STATISTICS_WRITING_DATE_UTC : 2018-12-01 19:38:40
_STATISTICS_TAGS : BPS DURATION NUMBER_OF_FRAMES NUMBER_OF_BYTES

Audio #2
ID : 3
Format : AC-3
Format/Info : Audio Coding 3
Mode extension : CM (complete main)
Codec ID : A_AC3
Duration : 1h 25mn
Bit rate mode : Constant
Bit rate : 384 Kbps
Channel(s) : 6 channels
Channel positions : Front: L C R, Side: L R, LFE
Sampling rate : 48.0 KHz
Bit depth : 16 bits
Compression mode : Lossy
Delay relative to video : 958ms
Stream size : 234 MiB (14%)
Title : Eng Ac3 5.1
Language : English
Default : No
Forced : No



Related torrents

Torrent NameAddedSizeSeedLeechHealth
Verified torrent
Last Month - in Movies1.99 GB536405
Verified torrent
7 months ago - in Movies2.81 GB23
Verified torrent
17 days ago - in Movies2.04 GB250184
Verified torrent
Last Month - in Movies1.57 GB20
Verified torrent
Last Month - in Movies1.62 GB10

Note :

Feel free to post any comments about this torrent, including links to Subtitle, samples, screenshots, or any other relevant information. Please Dont Download anything from Comments, And Links to Streaming Sites like Watch Online The Little Mermaid - La sirenetta (2018).720p.H264.italian.english.Ac3-5.1-MIRCrew Full Movie, Fmovies, 123Movies, Putlocker, Netflix, etc.

Comments (0 Comments)




Please login or create a FREE account to post comments
Quick Browse
Movies
TV shows
Music
Games
Applications
Anime
Other

Latest Articles

Friends

Latest Searches